<?xml version="1.0" standalone="no"?>
<!DOCTYPE svg PUBLIC "-//W3C//DTD SVG 1.1//EN" "http://www.w3.org/Graphics/SVG/1.1/DTD/svg11.dtd">
<svg xmlns="http://www.w3.org/2000/svg">
<defs >
<font id="Bitter" horiz-adv-x="504" ><font-face
    font-family="Bitter"
    units-per-em="1000"
    panose-1="2 0 0 0 0 0 0 0 0 0"
    ascent="1090"
    descent="-270"
    alphabetic="0" />
<glyph unicode=" " glyph-name="space" horiz-adv-x="235" />
<glyph unicode="!" glyph-name="exclam" horiz-adv-x="340" d="M247 765L229 261L109 256L91 765H247ZM85 78Q85 119 110 143T171 168Q212 168 233 145T255 78Q255 36 230 12T168 -13Q85 -13 85 78Z" />
<glyph unicode="&quot;" glyph-name="quotedbl" horiz-adv-x="441" d="M394 782L371 500H258V782H394ZM192 782L170 500H57V782H192Z" />
<glyph unicode="#" glyph-name="numbersign" horiz-adv-x="730" d="M85 367V470H196L214 600H341L323 470H449L466 600H593L576 470H670V367H562L546 244H645V141H532L514 0H387L405 141H280L261 0H134L153 141H60V244H166L183 367H85ZM310 367L293 244H419L435 367H310Z" />
<glyph unicode="$" glyph-name="dollar" horiz-adv-x="552" d="M332 -146H225V-11Q184 -9 142 -1T77 14L55 21V198H147L162 123Q196 105 249 105Q297 105 329 123T361 176Q361 197 344 213T300 239T241 260T176 286T116 322T72 378T55 460Q55 536 101 584T225
647V765H332V651Q370 648 409 639T468 622L488 615L484 451H398L379 525Q337 540 299 540Q252 540 227 523T202 477Q202 448 233 429T309 395T399 360T475 299T507 198Q507 117 460 65T332 -5V-146Z" />
<glyph unicode="%" glyph-name="percent" horiz-adv-x="935" d="M179 -8L597 712H742L324 -8H179ZM55 529Q55 616 106 666T235 717Q311 717 357 671T404 540Q404 454 353 402T223 350Q146 350 101 394T55 529ZM170 533Q170 437 228 437Q289 437 289 536Q289 631
230 631Q170 631 170 533ZM519 165Q519 252 570 302T699 353Q775 353 821 307T868 176Q868 90 817 38T687 -14Q610 -14 565 30T519 165ZM634 169Q634 73 692 73Q753 73 753 172Q753 267 694 267Q634 267 634 169Z" />
<glyph unicode="&amp;" glyph-name="ampersand" horiz-adv-x="677" d="M426 517Q419 544 410 582Q376 595 320 595Q274 595 250 572T225 516Q225 473 258 449T340 425H647V340L577 317V211Q577 107 505 48T308 -12Q181 -12 118 42T55 188Q55 225 70 258T109 314T150
348T182 368Q130 400 109 427Q76 470 76 526Q76 619 143 668T328 717Q380 717 440 702T525 675L520 517H426ZM432 225V317H357Q292 317 251 290T210 209Q210 162 239 136T318 110Q371 110 401 140T432 225Z" />
<glyph unicode="&apos;" glyph-name="quotesingle" horiz-adv-x="240" d="M192 782L170 500H57V782H192Z" />
<glyph unicode="(" glyph-name="parenleft" horiz-adv-x="353" d="M220 770H350Q278 660 236 530T194 282Q194 152 235 13T349 -230H220Q133 -107 94 11T54 280Q54 418 94 531T220 770Z" />
<glyph unicode=")" glyph-name="parenright" horiz-adv-x="350" d="M-1 770H129Q215 645 255 532T295 280Q295 130 256 11T129 -230H0Q72 -126 113 13T155 282Q155 400 113 530T-1 770Z" />
<glyph unicode="*" glyph-name="asterisk" horiz-adv-x="414" d="M167 617L153 736L246 738L237 616L348 665L379 575L257 550L339 455L266 400L201 511L212 555L257 550L220 576L237 616L201 587L167 617L185 574L146 552L191 555L201 511L141 400L64 454L146
552L22 573L52 662L167 617Z" />
<glyph unicode="+" glyph-name="plus" horiz-adv-x="620" d="M42 211V329H244V533H377V329H577V211H377V0H244V211H42Z" />
<glyph unicode="," glyph-name="comma" horiz-adv-x="303" d="M71 79Q71 119 95 143T157 168Q195 168 218 144T241 76Q241 -37 103 -185L40 -133Q100 -53 100 -13Q100 -1 86 26T71 79Z" />
<glyph unicode="-" glyph-name="hyphen" horiz-adv-x="395" d="M57 210V335H340V210H57Z" />
<glyph unicode="." glyph-name="period" horiz-adv-x="300" d="M65 78Q65 119 90 143T151 168Q192 168 213 145T235 78Q235 36 210 12T149 -13Q108 -13 87 10T65 78Z" />
<glyph unicode="/" glyph-name="slash" horiz-adv-x="516" d="M20 0L353 705H506L172 0H20Z" />
<glyph unicode="0" glyph-name="zero" horiz-adv-x="645" d="M189 717T332 717T532 630T590 362Q590 -13 322 -13Q185 -13 123 77T60 347Q60 529 124 623ZM383 592T326 592T246 539T222 352Q222 222 246 167T326 112T404 167T427 357Q427 489 405 540Z" />
<glyph unicode="1" glyph-name="one" horiz-adv-x="538" d="M516 115V0H86V115H226V545L73 447L15 553L253 705H381V115H516Z" />
<glyph unicode="2" glyph-name="two" horiz-adv-x="607" d="M557 122V0H40V122Q118 185 159 219T249 298T322 372T361 433T377 495Q377 541 345 568T260 595Q236 595 213 591T178 582L167 577L157 492H52L47 677Q160 717 267 717Q397 717 468 672T540 520Q540
469 523 422T464 325T378 231T257 122H557Z" />
<glyph unicode="3" glyph-name="three" horiz-adv-x="592" d="M517 537Q517 473 485 429T392 368Q455 354 493 311T532 210Q532 151 508 107T442 38T351 0T245 -12Q188 -12 133 1T52 28L25 42L67 152Q157 110 245 110Q306 110 339 136T372 212Q372 258 335 284T230
310H152V415H235Q365 415 365 512Q365 550 336 572T255 595Q233 595 209 592T170 584L157 580L147 500H42L37 675Q160 717 260 717Q517 717 517 537Z" />
<glyph unicode="4" glyph-name="four" horiz-adv-x="627" d="M595 265V142H495V0H341V142H30L15 260Q294 671 328 720L495 705V265H595ZM165 265H343V529L165 265Z" />
<glyph unicode="5" glyph-name="five" horiz-adv-x="560" d="M17 42L60 152Q150 110 237 110Q287 110 319 136T351 210Q351 266 305 291T165 317H57L74 705H484L481 582H216L209 432Q354 432 435 378T517 225Q517 115 440 52T253 -12Q193 -12 134 1T46 28L17 42Z" />
<glyph unicode="6" glyph-name="six" horiz-adv-x="617" d="M510 590Q480 595 432 595Q372 595 327 575T261 525T226 467T211 418L209 397Q280 440 365 440Q461 440 523 386T585 230Q585 125 510 56T322 -13Q193 -13 123 73T52 295Q52 484 147 600T427 717Q453
717 475 715T508 710L517 707L510 590ZM205 287V263Q205 185 237 148T321 110Q369 110 398 138T427 215Q427 322 319 322Q291 322 263 313T220 296L205 287Z" />
<glyph unicode="7" glyph-name="seven" horiz-adv-x="531" d="M5 705H515V597L253 0H88L347 580H126L106 487H5V705Z" />
<glyph unicode="8" glyph-name="eight" horiz-adv-x="618" d="M556 528Q556 429 447 378Q573 319 573 206Q573 108 497 48T298 -13Q177 -13 111 43T45 192Q45 297 173 361Q68 420 68 521Q68 614 136 665T321 717Q434 717 495 665T556 528ZM415 202Q415 240 385
262T295 308Q202 266 202 199Q202 156 229 133T308 110T387 134T415 202ZM217 521Q217 486 244 465T325 424Q406 458 406 521Q406 554 380 574T311 595Q267 595 242 575T217 521Z" />
<glyph unicode="9" glyph-name="nine" horiz-adv-x="617" d="M107 114Q137 110 185 110Q246 110 291 130T358 179T392 237T406 286L408 306Q337 265 252 265Q156 265 94 319T32 474Q32 580 107 648T295 717Q424 717 494 632T565 410Q565 287 526 194T401 44T190
-13Q164 -13 142 -11T110 -6L100 -3L107 114ZM412 418V445Q412 521 380 558T296 595Q248 595 219 567T190 489Q190 438 217 410T298 382Q326 382 354 391T398 409L412 418Z" />
<glyph unicode=":" glyph-name="colon" horiz-adv-x="305" d="M67 78Q67 119 92 143T154 168Q237 168 237 78Q237 36 212 12T151 -13Q110 -13 89 10T67 78ZM67 378Q67 420 92 444T154 469Q237 469 237 378Q237 337 212 313T151 288Q110 288 89 311T67 378Z" />
<glyph unicode=";" glyph-name="semicolon" horiz-adv-x="311" d="M106 -185L42 -133Q102 -53 102 -13Q102 -1 88 26T73 79Q73 119 97 143T160 168T220 144T243 76Q243 -36 106 -185ZM73 378Q73 420 98 444T159 469Q200 469 221 446T243 378Q243 337 218 313T157
288Q116 288 95 311T73 378Z" />
<glyph unicode="&lt;" glyph-name="less" horiz-adv-x="597" d="M202 267L557 122V-10L40 208V328L557 547V417L202 267Z" />
<glyph unicode="=" glyph-name="equal" horiz-adv-x="600" d="M50 107V222H550V107H50ZM50 322V437H550V322H50Z" />
<glyph unicode="&gt;" glyph-name="greater" horiz-adv-x="597" d="M40 122L395 267L40 417V547L557 328V208L40 -10V122Z" />
<glyph unicode="?" glyph-name="question" horiz-adv-x="464" d="M94 78Q94 119 119 143T180 168Q221 168 242 145T264 78Q264 36 239 12T177 -13Q94 -13 94 78ZM236 253L103 247Q94 312 94 345Q94 377 120 410T178 467T236 523T263 586Q263 652 173 652Q154 652
132 649T96 644L84 641L65 745Q148 769 214 769Q268 769 311 756T384 706T414 614Q414 571 396 533T351 467T298 414T253 363T234 311L236 253Z" />
<glyph unicode="@" glyph-name="at" horiz-adv-x="820" d="M593 147Q508 147 473 209Q467 203 457 193T416 167T355 151Q302 151 272 182T242 266Q242 385 410 385H456V419Q456 466 398 466Q378 466 351 462T307 454L290 449L271 523Q351 553 422 553Q499 553
534 523T569 427V261Q569 226 604 226Q635 226 652 260T670 361Q670 483 605 551T416 620Q292 620 225 550T157 350Q157 220 215 151T393 82Q423 82 454 88T502 100L518 107L559 25Q551 21 537 14T478 -4T386 -15Q222 -15 135 77T47 345Q47 517 148 617T421 717Q588
717 684 626T780 366Q780 263 728 205T593 147ZM347 275Q347 258 358 248T388 238Q422 238 456 272V319H417Q347 319 347 275Z" />
<glyph unicode="A" glyph-name="A" horiz-adv-x="762" d="M465 705L680 110L750 87V0H432V87L507 110L483 185H261L236 111L314 87V0H12V87L85 110L305 702L465 705ZM375 529L296 292H450L375 529Z" />
<glyph unicode="B" glyph-name="B" horiz-adv-x="657" d="M267 705H372Q473 705 532 662T592 532Q592 405 472 367Q615 326 615 207Q615 0 355 0H40V87Q65 96 115 112V587L40 617V700L267 705ZM325 312H267V117H350Q402 117 429 141T457 207Q457 261 425 286T325
312ZM267 587V417H325Q437 417 437 510Q437 548 414 567T352 587H267Z" />
<glyph unicode="C" glyph-name="C" horiz-adv-x="652" d="M484 576Q437 592 372 592Q207 592 207 347Q207 117 377 117Q421 117 468 134T542 170L567 187L622 97Q618 93 610 86T576 59T520 26T448 0T360 -12Q207 -12 124 78T40 342Q40 517 131 617T377 717Q431
717 489 706T578 682L610 670L605 480H507L484 576Z" />
<glyph unicode="D" glyph-name="D" horiz-adv-x="730" d="M52 0V87L127 112V587L52 617V700L282 705H377Q529 705 612 617T695 362Q695 194 605 97T362 0H52ZM282 587V117H365Q443 117 485 172T527 357Q527 479 488 533T372 587H282Z" />
<glyph unicode="E" glyph-name="E" horiz-adv-x="627" d="M285 587V420H487V310H285V117H462L485 200H577V0H55V87L130 112V587L55 617V700L285 705H565V512H472L447 587H285Z" />
<glyph unicode="F" glyph-name="F" horiz-adv-x="580" d="M367 87V0H45V87Q70 96 120 112V587L45 617V700L275 705H555V515H462L437 587H275V410H482V300H275V112Q353 91 367 87Z" />
<glyph unicode="G" glyph-name="G" horiz-adv-x="750" d="M527 490L502 576Q455 592 389 592Q222 592 222 347Q222 115 392 115Q415 115 442 119T486 128L502 133V259L427 282V364L715 369V282L647 259V55Q635 47 614 36T521 7T375 -12Q222 -12 139 78T55 342Q55
517 146 617T392 717Q446 717 504 706T594 682L625 670L620 490H527Z" />
<glyph unicode="H" glyph-name="H" horiz-adv-x="792" d="M342 87V0H35V87L110 112V587L35 617V700L342 705V617L265 587V422H527V587L450 617V700L757 705V617L682 587V112L757 87V0H450V87L527 112V305H265V112L342 87Z" />
<glyph unicode="I" glyph-name="I" horiz-adv-x="375" d="M340 87V0H35V87L110 112V587L35 617V700L340 705V617L265 587V112L340 87Z" />
<glyph unicode="J" glyph-name="J" horiz-adv-x="382" d="M272 587V106Q272 -30 222 -93T44 -157L-32 -150L-19 -50H29Q117 -50 117 46V587L42 617V700L347 705V617L272 587Z" />
<glyph unicode="K" glyph-name="K" horiz-adv-x="735" d="M347 87V0H40V87L115 112V587L40 617V700L347 705V617L270 587V415H338L505 700L687 705V617L598 589L466 371L653 112L727 87V0H420V87L478 111L343 305H270V112L347 87Z" />
<glyph unicode="L" glyph-name="L" horiz-adv-x="540" d="M262 587V117H415L437 230H532V0H32V87L107 112V587L32 617V700L337 705V617L262 587Z" />
<glyph unicode="M" glyph-name="M" horiz-adv-x="877" d="M322 87V0H37V87L112 112V587L37 617V700L295 705L445 372L602 700L842 705V617L770 587V112L845 87V0H547V87L625 112V491Q607 444 584 394T531 284T485 190L377 185L262 422L245 474V112L322 87Z" />
<glyph unicode="N" glyph-name="N" horiz-adv-x="785" d="M325 87V0H35V87L110 112V587L35 617V700L275 705L545 243V587L472 617V700L757 705V617L682 587V0H515L247 453V112L325 87Z" />
<glyph unicode="O" glyph-name="O" horiz-adv-x="755" d="M385 717Q535 717 617 624T700 362Q700 193 608 90T365 -13T135 79T55 347Q55 519 143 618T385 717ZM380 592Q302 592 262 537T222 352Q222 229 258 171T370 112Q449 112 490 169T532 357Q532 479 494
535T380 592Z" />
<glyph unicode="P" glyph-name="P" horiz-adv-x="630" d="M347 87V0H42V87L117 112V587L42 617V700L272 705H367Q481 705 545 649T610 495Q610 371 537 308T325 245H272V112L347 87ZM272 587V362H325Q388 362 421 391T455 475Q455 525 429 556T352 587H272Z" />
<glyph unicode="Q" glyph-name="Q" horiz-adv-x="742" d="M542 -147L340 -11Q201 -2 128 89T55 347Q55 518 146 617T392 717Q545 717 627 624T710 362Q710 233 655 141T502 11Q510 6 546 -18T600 -53T645 -74T695 -85Q709 -85 732 -77T771 -59L787 -50Q797 -65
816 -94T840 -130Q828 -138 809 -149T745 -180T670 -200Q620 -200 542 -147ZM387 592Q302 592 261 535T220 352Q220 112 377 112Q462 112 503 172T545 357Q545 478 507 535T387 592Z" />
<glyph unicode="R" glyph-name="R" horiz-adv-x="680" d="M342 87V0H40V87L115 112V587L40 617V700L270 705H346Q471 705 538 654T606 501Q606 368 493 312Q518 283 535 247L602 110L670 87V0H485L401 185Q374 245 359 261T305 277H270V112L342 87ZM270 587V382H327Q386
382 419 409T452 487Q452 532 425 559T352 587H270Z" />
<glyph unicode="S" glyph-name="S" horiz-adv-x="604" d="M162 217L177 133Q217 112 275 112Q326 112 361 133T396 193Q396 220 371 240T309 271T227 300T146 340T83 404T58 505Q58 606 128 661T312 717Q362 717 417 707T502 687L532 677L527 495H435L410 580Q365
595 322 595Q271 595 244 575T216 524Q216 497 241 477T303 446T384 416T465 377T528 315T553 219Q553 110 478 49T283 -13Q233 -13 177 -4T90 16L60 25V217H162Z" />
<glyph unicode="T" glyph-name="T" horiz-adv-x="600" d="M140 0V87L222 112V587H127L102 492H10V702L590 705V492H497L472 587H377V112L460 87V0H140Z" />
<glyph unicode="U" glyph-name="U" horiz-adv-x="782" d="M262 587V270Q262 183 291 147T392 110Q468 110 494 150T520 285V587L442 617V700L750 705V617L675 587V285Q675 135 609 62T387 -12Q239 -12 173 56T107 270V587L32 617V700L340 705V617L262 587Z" />
<glyph unicode="V" glyph-name="V" horiz-adv-x="729" d="M277 0L75 589L7 617V700L317 705V617L243 588L335 299L367 176L399 294L498 587L422 617V700L721 705V617L648 587L437 0H277Z" />
<glyph unicode="W" glyph-name="W" horiz-adv-x="1035" d="M237 0L75 588L5 617V700L302 705V617L229 587L315 225L455 697L590 705L724 226L820 587L745 617V700L1030 705V617L958 587L787 0H645L514 475Q490 377 436 199T375 0H237Z" />
<glyph unicode="X" glyph-name="X" horiz-adv-x="740" d="M307 87V0H10V87L72 108L274 354L88 598L30 617V700L330 705V617L280 600L383 461L481 596L427 617V700L715 705V617L649 597L465 362L660 107L730 87V0H420V87L466 103L356 253L244 107L307 87Z" />
<glyph unicode="Y" glyph-name="Y" horiz-adv-x="667" d="M485 87V0H180V87L255 112V244L72 590L7 617V700L290 705V617L239 596L339 379L445 595L390 617V700L660 705V617L591 590L410 245V112L485 87Z" />
<glyph unicode="Z" glyph-name="Z" horiz-adv-x="615" d="M582 0H30V102L385 587H175L150 497H55V705H585V592L237 117H465L487 220H582V0Z" />
<glyph unicode="[" glyph-name="bracketleft" horiz-adv-x="352" d="M317 -123V-225L67 -230V770L317 765V662L198 651V-112L317 -123Z" />
<glyph unicode="\" glyph-name="backslash" horiz-adv-x="506" d="M160 705L493 0H341L7 705H160Z" />
<glyph unicode="]" glyph-name="bracketright" horiz-adv-x="352" d="M32 -225V-122L152 -111V651L32 662V765L282 770V-230L32 -225Z" />
<glyph unicode="^" glyph-name="asciicircum" horiz-adv-x="595" d="M295 565L175 320H50L242 705H352L545 320H416L295 565Z" />
<glyph unicode="_" glyph-name="underscore" horiz-adv-x="500" d="M0 -180V-80H500V-180H0Z" />
<glyph unicode="`" glyph-name="grave" horiz-adv-x="418" d="M299 627L72 739L130 848L346 707L299 627Z" />
<glyph unicode="a" glyph-name="a" horiz-adv-x="592" d="M570 7L372 0L354 65Q345 57 330 45T273 11T192 -10Q119 -10 78 31T37 147Q37 312 277 312H347V367Q347 442 270 442Q247 442 225 438T192 430L182 427L167 362H77L70 510Q191 550 287 550Q401 550 448
506T495 352V105L570 87V7ZM181 162Q181 102 240 102Q264 102 290 116T332 146L347 160V227H290Q232 227 207 212T181 162Z" />
<glyph unicode="b" glyph-name="b" horiz-adv-x="595" d="M-10 767L212 775V497Q281 550 355 550Q455 550 507 481T560 285Q560 142 486 65T270 -12Q221 -12 170 -7T92 4L65 10V667L-10 687V767ZM212 387V113Q235 105 286 105Q405 105 405 275Q405 432 307 432Q280
432 257 421T222 398L212 387Z" />
<glyph unicode="c" glyph-name="c" horiz-adv-x="515" d="M455 160L505 75Q408 -10 290 -10Q167 -10 99 62T30 262Q30 396 102 473T305 550Q343 550 387 542T456 524L480 515L475 352H385L371 424Q342 432 302 432Q246 432 216 395T185 282Q185 197 216 152T310
107Q330 107 348 110T383 121T409 133T435 148T455 160Z" />
<glyph unicode="d" glyph-name="d" horiz-adv-x="625" d="M607 7L397 0L388 53Q325 -10 237 -10Q134 -10 83 60T32 257Q32 399 103 474T315 550Q348 550 380 540V667L300 687V767L527 775V107L607 87V7ZM380 164V420Q355 435 302 435Q187 435 187 265Q187 107
283 107Q311 107 335 121T370 150L380 164Z" />
<glyph unicode="e" glyph-name="e" horiz-adv-x="557" d="M524 240L192 237Q196 175 228 141T312 107Q349 107 391 118T456 142L480 154L523 74Q512 65 492 51T412 14T295 -10Q168 -10 102 60T35 260Q35 393 106 471T302 550Q412 550 471 487T530 315L524 240ZM292
433Q251 433 226 405T194 330H374Q374 433 292 433Z" />
<glyph unicode="f" glyph-name="f" horiz-adv-x="465" d="M142 530V575Q142 673 197 730T355 787Q403 787 446 778T510 759L530 750L527 602H440L425 676Q400 680 367 680Q290 680 290 592V530H420L417 430H290V105L386 80V0H62V80L142 105V430H52V515L142 530Z" />
<glyph unicode="g" glyph-name="g" horiz-adv-x="615" d="M42 -110Q42 -72 68 -42T120 -1L147 10Q140 11 130 14T104 34T87 76Q87 107 139 189Q62 240 62 345Q62 444 128 497T302 550Q369 550 420 526L592 530V450L510 436Q510 435 515 423T523 393T527 357Q527
253 462 203T287 152Q275 152 264 153T245 155T236 157L232 90H380Q476 90 528 50T580 -65Q580 -151 510 -203T300 -255Q174 -255 108 -222T42 -110ZM297 447Q212 447 212 352Q212 252 292 252Q338 252 357 276T377 352Q377 447 297 447ZM340 -20H235Q230 -22 222
-27T201 -49T187 -85Q187 -121 216 -133T312 -145Q380 -145 410 -129T440 -77Q440 -45 417 -33T340 -20Z" />
<glyph unicode="h" glyph-name="h" horiz-adv-x="667" d="M25 767L252 775V482Q334 550 420 550Q495 550 535 503T575 370V105L645 80V0H375V80L427 104V347Q427 427 361 427Q336 427 309 414T267 387L252 374V105L305 80V0H25V80L105 105V667L25 687V767Z" />
<glyph unicode="i" glyph-name="i" horiz-adv-x="358" d="M35 532L262 540V105L332 80V0H35V80L115 105V432L35 452V532ZM96 705Q96 746 121 770T182 795Q266 795 266 705Q266 663 241 639T182 614Q141 614 119 637T96 705Z" />
<glyph unicode="j" glyph-name="j" horiz-adv-x="319" d="M29 -245L-47 -238L-35 -145H17Q61 -145 80 -121T99 -46V432L19 452V532L247 540V13Q247 -122 199 -183T29 -245ZM79 705Q79 745 103 770T165 795Q249 795 249 705Q249 665 225 640T165 614Q124 614 102
637T79 705Z" />
<glyph unicode="k" glyph-name="k" horiz-adv-x="635" d="M25 767L252 775V337H317L386 443L342 457V537L600 542V457L530 444L437 311L549 104L625 80V0H440L316 245H252V105L307 80V0H25V80L105 105V667L25 687V767Z" />
<glyph unicode="l" glyph-name="l" horiz-adv-x="358" d="M25 767L256 775V105L351 80V0H25V80L105 105V667L25 687V767Z" />
<glyph unicode="m" glyph-name="m" horiz-adv-x="982" d="M892 370V105L960 80V0H692V80L745 105V340Q745 382 732 402T687 422Q658 422 631 409T590 383L576 370V105L628 80V0H376V80L428 105V340Q428 383 415 402T371 422Q342 422 314 409T272 383L259 370V105L312
80V0H35V80L112 105V433L36 452V532L242 540L249 469Q259 478 276 491T339 527T424 550Q523 550 560 464Q575 479 595 495T658 530T741 550Q816 550 854 503T892 370Z" />
<glyph unicode="n" glyph-name="n" horiz-adv-x="675" d="M35 532L242 540L249 471Q260 480 278 492T344 526T433 548Q505 548 543 501T582 370V105Q595 101 619 92T652 80V0H382V80L435 105V347Q435 382 417 404T367 427Q339 427 313 413T273 384L260 370V105L312
80V0H35V80L112 105V432L35 452V532Z" />
<glyph unicode="o" glyph-name="o" horiz-adv-x="592" d="M305 550Q426 550 491 480T557 280Q557 146 485 68T290 -10Q35 -10 35 265Q35 399 108 474T305 550ZM300 435Q243 435 217 398T190 270Q190 184 215 145T295 105T376 144T402 275Q402 356 378 395T300 435Z" />
<glyph unicode="p" glyph-name="p" horiz-adv-x="630" d="M100 432L20 452V532L230 540L239 484Q247 491 260 502T312 531T387 550Q489 550 542 480T595 285Q595 143 527 67T322 -10Q287 -10 247 0V-127L342 -150V-230H22V-150L100 -127V432ZM247 377V110Q272
95 325 95Q387 95 413 137T440 267Q440 432 340 432Q311 432 288 418T256 390L247 377Z" />
<glyph unicode="q" glyph-name="q" horiz-adv-x="592" d="M527 -125L602 -150V-230H285V-150L380 -125V44Q373 38 360 29T309 5T237 -10Q135 -10 84 60T32 255Q32 394 106 472T322 550Q371 550 422 544T500 532L527 526V-125ZM380 152V427Q352 435 302 435Q187
435 187 265Q187 186 210 147T286 107Q314 107 337 118T370 141L380 152Z" />
<glyph unicode="r" glyph-name="r" horiz-adv-x="490" d="M35 532L242 540L251 471Q259 480 273 493T323 528T390 550Q414 550 436 546T470 536L480 532L472 342H385L370 427Q344 427 317 413T276 385L262 371V105L357 80V0H35V80L115 105V432L35 452V532Z" />
<glyph unicode="s" glyph-name="s" horiz-adv-x="491" d="M133 175L141 105Q174 95 223 95Q302 95 302 149Q302 172 275 188T209 217T131 245T65 296T38 379Q38 467 97 508T244 550Q284 550 330 543T404 528L430 520Q428 470 426 370H338L323 435Q297 445 257
445Q226 445 208 432T190 394Q190 371 217 355T283 327T361 300T427 251T455 170Q455 85 393 38T225 -10Q183 -10 137 -5T66 6L41 12V175H133Z" />
<glyph unicode="t" glyph-name="t" horiz-adv-x="437" d="M255 -10Q172 -10 141 43T110 230V417H17V512L110 525V663L257 690V525H397V417H257V191Q257 141 268 121T310 101Q346 101 389 124L425 52Q337 -10 255 -10Z" />
<glyph unicode="u" glyph-name="u" horiz-adv-x="655" d="M89 169V434L16 452V532L237 540V197Q237 156 250 137T293 117Q321 117 350 130T396 158L411 172V434L337 452V532L558 540V105L634 85V7L430 0L420 70Q417 67 411 62T385 42T346 18T298 -1T243 -10Q168
-10 129 37T89 169Z" />
<glyph unicode="v" glyph-name="v" horiz-adv-x="599" d="M302 150L390 442L332 455V535L594 540V455L537 442L376 0H211L53 439L5 455V535L267 540V455L211 445L302 150Z" />
<glyph unicode="w" glyph-name="w" horiz-adv-x="878" d="M509 545L618 162L677 440L616 455V535L872 540V455L819 443L686 0H533L454 255L436 333L411 224L338 0H186L50 441L6 455V535L268 540V455L205 443L271 162L377 523L509 545Z" />
<glyph unicode="x" glyph-name="x" horiz-adv-x="592" d="M405 535L572 540V455L510 442L395 270L508 100L582 80V0H310V80L341 91L288 179L180 0H10V80L85 100L195 265L74 442L20 455V535L279 540V455L249 449L301 361L405 535Z" />
<glyph unicode="y" glyph-name="y" horiz-adv-x="611" d="M241 -1L63 439L10 455V535L277 540V455L221 445L310 165L395 442L337 455V535L606 540V455L544 442L397 32Q375 -27 356 -67T304 -151T227 -217T125 -240L28 -232L42 -125H107Q135 -125 158 -113T198
-77T223 -38T241 -1Z" />
<glyph unicode="z" glyph-name="z" horiz-adv-x="517" d="M62 540H482V447L225 105H378L397 195H485V0H50V92L311 435H167L150 357H62V540Z" />
<glyph unicode="{" glyph-name="braceleft" horiz-adv-x="404" d="M253 570V465Q253 396 233 355T161 295Q253 259 253 153V-20Q253 -80 278 -101T374 -122V-225H307Q207 -225 166 -176T125 -13V141Q125 191 104 218T30 245V345Q83 345 104 372T125 449V590Q125
687 170 731T307 775H374V672Q303 672 278 651T253 570Z" />
<glyph unicode="|" glyph-name="bar" horiz-adv-x="282" d="M200 -230H82V755H200V-230Z" />
<glyph unicode="}" glyph-name="braceright" horiz-adv-x="409" d="M160 436V570Q160 630 136 651T40 672V775H107Q200 775 244 731T289 590V449Q289 399 310 372T384 345V245Q331 245 310 218T289 141V-13Q289 -127 247 -176T106 -225H40V-122Q111 -122 135 -101T160
-20V153Q160 259 253 295Q160 331 160 436Z" />
<glyph unicode="~" glyph-name="asciitilde" horiz-adv-x="626" d="M105 209L43 260Q45 265 49 273T69 301T101 336T146 365T204 378Q248 378 312 345T411 311Q435 311 459 324T495 352L507 366L573 316Q571 311 567 303T547 275T514 238T470 209T415 196Q372
196 303 229T198 263Q174 263 151 250T116 222L105 209Z" />
<glyph unicode="&#xa1;" glyph-name="exclamdown" horiz-adv-x="337" d="M252 466Q252 425 227 401T166 376Q125 376 104 399T82 466Q82 508 107 532T169 557Q252 557 252 466ZM92 -221L110 283L230 288L249 -221H92Z" />
<glyph unicode="&#xa2;" glyph-name="cent" horiz-adv-x="510" d="M331 0H223V110Q134 126 86 190T38 353Q38 455 85 522T223 608V705H331V614Q363 611 396 603T448 587L465 580L460 428H375L361 497Q332 505 297 505Q185 505 185 372Q185 215 304 215Q319 215
334 217T359 223T383 232T403 241T421 252T436 261L485 183Q415 121 331 108V0Z" />
<glyph unicode="&#xa3;" glyph-name="sterling" horiz-adv-x="625" d="M60 0V87L110 105Q139 115 148 136T157 207Q157 217 152 320H60V413L145 427Q142 469 142 510Q142 608 194 662T355 717Q412 717 465 709T542 691L567 682V520H477L457 594Q420 600 372 600Q290
600 290 512V493Q290 470 292 430H436V320H300Q305 262 305 222Q305 150 268 117H454L477 220H570V0H60Z" />
<glyph unicode="&#xa4;" glyph-name="currency" horiz-adv-x="624" d="M105 296Q105 354 131 400L52 480L126 560L206 480Q259 510 317 510Q373 510 421 485L498 561L572 481L498 407Q523 360 523 302Q523 241 495 191L573 114L498 35L419 113Q371 85 312 85Q246
85 201 112L126 37L51 117L127 192Q105 239 105 296ZM227 298Q227 189 314 189Q402 189 402 298Q402 403 314 403Q227 403 227 298Z" />
<glyph unicode="&#xa5;" glyph-name="yen" horiz-adv-x="672" d="M84 313V403H178L76 589L10 617V700L292 705V617L241 596L342 385L448 595L392 617V700L662 705V617L592 590L489 403H584V313H84ZM182 0V87L257 107V163H84V253H584V163H412V107L487 87V0H182Z" />
<glyph unicode="&#xa6;" glyph-name="brokenbar" horiz-adv-x="297" d="M205 365H87V765H205V365ZM205 -265H87V145H205V-265Z" />
<glyph unicode="&#xa7;" glyph-name="section" horiz-adv-x="534" d="M172 52L186 -36Q207 -42 237 -42Q273 -42 293 -24T314 25Q314 57 288 85T225 137T151 188T88 256T62 349Q62 446 132 497Q102 545 102 604Q102 685 158 736T303 787Q342 787 381 780T439 764L458
756L454 591H375L358 677Q333 683 311 683Q274 683 254 664T233 615Q233 582 259 553T322 500T395 449T458 380T484 288Q484 193 414 142Q444 95 444 40Q444 -45 388 -96T243 -148Q206 -148 167 -141T108 -126L88 -119L90 52H172ZM188 366Q188 338 207 316T276
262T341 216Q359 238 359 272Q359 300 340 322T271 376T205 421Q188 398 188 366Z" />
<glyph unicode="&#xa8;" glyph-name="dieresis" horiz-adv-x="544" d="M90 712Q90 747 111 768T164 790Q199 790 217 770T236 712Q236 676 215 655T162 634Q90 634 90 712ZM308 712Q308 747 330 768T382 790Q454 790 454 712Q454 676 433 655T380 634Q308 634 308 712Z" />
<glyph unicode="&#xa9;" glyph-name="copyright" horiz-adv-x="823" d="M37 345Q37 506 143 612T411 719Q573 719 679 617T785 355T674 88T401 -19Q240 -19 139 82T37 345ZM139 350Q139 227 212 151T406 75Q528 75 605 151T683 350Q683 471 606 548T406 625Q285
625 212 549T139 350ZM523 273L560 216Q483 152 408 152Q323 152 274 201T224 342Q224 439 275 496T419 553Q447 553 479 546T530 530L548 523L545 411H476L465 466Q440 472 417 472Q334 472 334 355Q334 235 421 235Q449 235 478 247T523 273Z" />
<glyph unicode="&#xaa;" glyph-name="ordfeminine" horiz-adv-x="468" d="M66 135V235H439V135H66ZM439 328L300 322L286 372Q280 366 270 357T230 331T169 315Q115 315 86 345T56 431Q56 549 227 549H273V585Q273 607 260 619T223 631Q208 631 193 629T169 624L161
622L152 579H81L75 688Q170 717 238 717Q320 717 353 684T386 574V406L439 394V328ZM164 439Q164 423 175 413T204 403Q220 403 237 411T264 428L273 437V484H234Q164 484 164 439Z" />
<glyph unicode="&#xab;" glyph-name="guillemotleft" horiz-adv-x="599" d="M431 265L544 105L461 49L305 226V303L461 480L544 425L431 265ZM181 265L290 105L207 49L55 226V303L207 480L290 425L181 265Z" />
<glyph unicode="&#xac;" glyph-name="logicalnot" horiz-adv-x="642" d="M60 260V375H587V80H460V260H60Z" />
<glyph unicode="&#xae;" glyph-name="registered" horiz-adv-x="723" d="M45 449Q45 586 135 676T362 766T588 681T678 460Q678 324 584 234T351 143Q216 143 131 228T45 449ZM143 556T143 455T200 293T357 231Q457 231 519 293T581 455T519 616T357 678Q258 678
201 617ZM366 347V302H222V347L256 359V557L222 571V613L365 615Q367 615 368 615Q404 615 430 605T472 574T488 524Q488 466 435 440Q443 435 452 418L483 359L516 347V302H426L385 393Q377 411 371 417T356 423H333V359L366 347ZM333 556V476H359Q380 476 395
487T410 516Q410 556 366 556H333Z" />
<glyph unicode="&#xaf;" glyph-name="overscore" horiz-adv-x="350" d="M42 640V747H307V640H42Z" />
<glyph unicode="&#xb0;" glyph-name="degree" horiz-adv-x="426" d="M45 580Q45 652 92 696T213 741T334 699T381 585Q381 509 334 464T213 419Q138 419 92 462T45 580ZM145 584Q145 548 162 528T213 508T263 528T281 584Q281 616 263 634T213 652T164 634T145 584Z" />
<glyph unicode="&#xb1;" glyph-name="plusminus" horiz-adv-x="622" d="M52 288V405H245V552H378V405H570V288H378V137H245V288H52ZM52 -36V78H570V-36H52Z" />
<glyph unicode="&#xb2;" glyph-name="twosuperior" horiz-adv-x="404" d="M33 380Q160 477 187 505Q225 545 225 579Q225 618 174 618Q163 618 153 616T136 612L131 611L124 558H39L36 690Q113 715 184 715Q266 715 313 686T361 595Q361 538 327 496T204 385H365V280H33V380Z"
/>
<glyph unicode="&#xb3;" glyph-name="threesuperior" horiz-adv-x="395" d="M352 604Q352 565 330 540T271 504Q309 497 335 471T362 407Q362 339 309 306T172 272Q137 272 99 281T38 300L17 310L44 394Q106 367 163 367Q194 367 212 381T231 414Q231 459 158
459H104V534H159Q227 534 227 582Q227 622 172 622L119 616L114 574H32L29 692Q115 715 184 715Q265 715 308 687T352 604Z" />
<glyph unicode="&#xb4;" glyph-name="acute" horiz-adv-x="418" d="M346 740L119 627L72 707L288 848L346 740Z" />
<glyph unicode="&#xb5;" glyph-name="mu" horiz-adv-x="659" d="M91 -235V432L17 452V532L238 540V191Q238 117 296 117Q325 117 354 130T400 158L415 172V432L341 452V532L562 540V105L638 85V7L435 0L425 71Q416 62 401 49T345 13T275 -10Q254 -10 238 -4V-235H91Z" />
<glyph unicode="&#xb6;" glyph-name="paragraph" horiz-adv-x="721" d="M154 -170V-87L236 -65V273Q156 281 103 342T50 491Q50 584 110 644T275 705H460L666 697V617L586 597V-170H460V597H355V-170H154Z" />
<glyph unicode="&#xb7;" glyph-name="middot" horiz-adv-x="299" d="M61 306Q61 350 86 375T151 400Q237 400 237 306Q237 262 213 238T148 213Q61 213 61 306Z" />
<glyph unicode="&#xb8;" glyph-name="cedilla" horiz-adv-x="431" d="M204 -167Q227 -167 240 -157T254 -129Q254 -86 172 -86V0H257V-43Q297 -51 320 -74T343 -132Q343 -177 308 -205T217 -233Q187 -233 157 -225T110 -209L95 -201L126 -146Q166 -167 204 -167Z" />
<glyph unicode="&#xb9;" glyph-name="onesuperior" horiz-adv-x="393" d="M373 369V280H59V369H155V578L64 523L15 606L173 705H282V369H373Z" />
<glyph unicode="&#xba;" glyph-name="ordmasculine" horiz-adv-x="494" d="M254 717Q342 717 393 667T444 524T388 374T242 315Q152 315 101 364T50 510Q50 604 107 660T254 717ZM249 625Q175 625 175 514Q175 407 247 407T319 520Q319 625 249 625ZM58 135V235H436V135H58Z"
/>
<glyph unicode="&#xbb;" glyph-name="guillemotright" horiz-adv-x="599" d="M55 105L168 265L55 425L138 480L294 303V226L138 49L55 105ZM309 105L418 265L309 425L392 480L544 303V226L392 49L309 105Z" />
<glyph unicode="&#xbc;" glyph-name="onequarter" horiz-adv-x="1072" d="M255 0L663 705H808L400 0H255ZM815 430L959 413V170H1017V77H959V0H832V77H632L618 161L815 430ZM392 369V280H89V369H185V578L94 523L45 606L203 705H312V369H392ZM832 297L737 170H832V297Z" />
<glyph unicode="&#xbd;" glyph-name="onehalf" horiz-adv-x="1073" d="M256 0L664 705H809L401 0H256ZM683 100Q809 197 833 222Q875 264 875 300Q875 338 823 338Q812 338 802 336T786 332L780 331L774 278H689L686 410Q762 435 833 435Q916 435 963 406T1011
315Q1011 258 977 216T854 105H1015V0H683V100ZM392 369V280H89V369H185V578L94 523L45 606L203 705H312V369H392Z" />
<glyph unicode="&#xbe;" glyph-name="threequarters" horiz-adv-x="1054" d="M238 0L646 705H791L383 0H238ZM615 77L601 161L797 430L941 413V170H999V77H941V0H814V77H615ZM374 596Q374 517 293 495Q330 489 357 462T385 398Q385 331 332 298T195 264Q160 264
121 273T61 292L40 301L67 385Q128 359 185 359Q211 359 232 371T254 406Q254 451 180 451H127V525H182Q249 525 249 575Q249 614 195 614Q182 614 169 612T148 608L141 607L136 566H55L51 683Q138 706 207 706Q288 706 331 678T374 596ZM814 297L719 170H814V297Z"
/>
<glyph unicode="&#xbf;" glyph-name="questiondown" horiz-adv-x="461" d="M370 466Q370 425 345 401T284 376Q243 376 222 399T200 466Q200 508 225 532T286 557Q327 557 348 534T370 466ZM228 291L360 297Q369 232 369 199Q369 167 343 134T285 77T228 21T201
-42Q201 -108 291 -108Q310 -108 332 -105T367 -100L380 -97L399 -201Q315 -225 250 -225Q196 -225 153 -212T80 -162T50 -70Q50 -27 68 11T113 77T166 130T211 181T230 233L228 291Z" />
<glyph unicode="&#xc0;" glyph-name="Agrave" horiz-adv-x="762" d="M473 735L246 847L304 956L519 815L473 735ZM465 705L680 110L750 87V0H432V87L507 110L483 185H261L236 111L314 87V0H12V87L85 110L305 702L465 705ZM375 529L296 292H450L375 529Z" />
<glyph unicode="&#xc1;" glyph-name="Aacute" horiz-adv-x="762" d="M579 847L352 735L306 815L521 956L579 847ZM465 705L680 110L750 87V0H432V87L507 110L483 185H261L236 111L314 87V0H12V87L85 110L305 702L465 705ZM375 529L296 292H450L375 529Z" />
<glyph unicode="&#xc2;" glyph-name="Acircumflex" horiz-adv-x="762" d="M385 840L228 742L180 808L333 939L422 947L584 808L536 742L385 840ZM465 705L680 110L750 87V0H432V87L507 110L483 185H261L236 111L314 87V0H12V87L85 110L305 702L465 705ZM375 529L296
292H450L375 529Z" />
<glyph unicode="&#xc3;" glyph-name="Atilde" horiz-adv-x="762" d="M465 705L680 110L750 87V0H432V87L507 110L483 185H261L236 111L314 87V0H12V87L85 110L305 702L465 705ZM375 529L296 292H450L375 529ZM252 795L205 841Q207 845 210 852T225 879T250 912T285
939T330 951Q366 951 416 928T496 905Q513 905 530 915T557 937L565 947L618 901Q616 897 613 890T598 863T573 830T538 804T493 792Q457 792 406 814T325 836Q306 836 288 826T261 805L252 795Z" />
<glyph unicode="&#xc4;" glyph-name="Adieresis" horiz-adv-x="762" d="M465 705L680 110L750 87V0H432V87L507 110L483 185H261L236 111L314 87V0H12V87L85 110L305 702L465 705ZM375 529L296 292H450L375 529ZM226 847Q226 882 247 903T300 925Q335 925 353
905T372 847Q372 811 351 790T298 769Q226 769 226 847ZM444 847Q444 882 466 903T518 925Q590 925 590 847Q590 811 569 790T516 769Q444 769 444 847Z" />
<glyph unicode="&#xc5;" glyph-name="Aring" horiz-adv-x="762" d="M465 705L680 110L750 87V0H432V87L507 110L483 185H261L236 111L314 87V0H12V87L85 110L305 702L465 705ZM375 529L296 292H450L375 529ZM249 804Q249 864 289 900T383 937T476 903T516 810T476
714T383 677Q329 677 289 711T249 804ZM334 807Q334 750 383 750Q404 750 417 765T431 808Q431 865 383 865Q361 865 348 850T334 807Z" />
<glyph unicode="&#xc6;" glyph-name="AE" horiz-adv-x="984" d="M644 587V420H846V310H644V117H821L844 202H936V0H415V87L489 112V192H296L256 108L318 87V0H20V87L102 112L333 589L248 617V700L439 705H924V510H831L806 587H644ZM489 300V587H475L343 300H489Z" />
<glyph unicode="&#xc7;" glyph-name="Ccedilla" horiz-adv-x="652" d="M567 187L622 97Q619 94 613 88T585 66T542 37T484 11T413 -8V-44Q498 -61 498 -134Q498 -178 462 -206T372 -234Q342 -234 311 -226T263 -208L247 -200L279 -144Q321 -167 361 -167Q382 -167
394 -157T407 -130Q407 -87 325 -87V-10Q188 -1 114 89T40 342Q40 517 131 617T377 717Q431 717 489 706T578 682L610 670L605 480H507L484 576Q437 592 372 592Q207 592 207 347Q207 117 377 117Q421 117 468 134T542 170L567 187Z" />
<glyph unicode="&#xc8;" glyph-name="Egrave" horiz-adv-x="625" d="M285 587V420H487V310H285V117H462L485 200H577V0H55V87L130 112V587L55 617V700L285 705H565V512H472L447 587H285ZM386 735L159 847L217 956L433 815L386 735Z" />
<glyph unicode="&#xc9;" glyph-name="Eacute" horiz-adv-x="627" d="M285 587V420H487V310H285V117H462L485 200H577V0H55V87L130 112V587L55 617V700L285 705H565V512H472L447 587H285ZM490 848L263 735L216 815L432 956L490 848Z" />
<glyph unicode="&#xca;" glyph-name="Ecircumflex" horiz-adv-x="627" d="M285 587V420H487V310H285V117H462L485 200H577V0H55V87L130 112V587L55 617V700L285 705H565V512H472L447 587H285ZM342 840L185 742L137 808L290 939L379 947L541 808L493 742L342 840Z" />
<glyph unicode="&#xcb;" glyph-name="Edieresis" horiz-adv-x="627" d="M285 587V420H487V310H285V117H462L485 200H577V0H55V87L130 112V587L55 617V700L285 705H565V512H472L447 587H285ZM145 848Q145 883 166 904T219 926Q254 926 272 906T291 848Q291 812
270 791T217 770Q145 770 145 848ZM363 848Q363 883 385 904T437 926Q509 926 509 848Q509 812 488 791T435 770Q363 770 363 848Z" />
<glyph unicode="&#xcc;" glyph-name="Igrave" horiz-adv-x="370" d="M330 87V0H25V87L100 112V587L25 617V700L330 705V617L255 587V112L330 87ZM236 735L9 847L67 956L283 815L236 735Z" />
<glyph unicode="&#xcd;" glyph-name="Iacute" horiz-adv-x="400" d="M345 87V0H40V87L115 112V587L40 617V700L345 705V617L270 587V112L345 87ZM365 848L138 735L91 815L307 956L365 848Z" />
<glyph unicode="&#xce;" glyph-name="Icircumflex" horiz-adv-x="449" d="M378 87V0H73V87L148 112V587L73 617V700L378 705V617L303 587V112L378 87ZM225 840L68 742L20 808L173 939L262 947L424 808L376 742L225 840Z" />
<glyph unicode="&#xcf;" glyph-name="Idieresis" horiz-adv-x="404" d="M26 847Q26 882 47 903T100 925Q135 925 153 905T172 847Q172 811 151 790T98 769Q26 769 26 847ZM234 847Q234 882 256 903T308 925Q380 925 380 847Q380 811 359 790T306 769Q234 769 234
847ZM354 87V0H49V87L124 112V587L49 617V700L354 705V617L279 587V112L354 87Z" />
<glyph unicode="&#xd0;" glyph-name="Eth" horiz-adv-x="761" d="M57 312V422H140V587L50 617V700L295 705H394Q545 705 628 617T711 362Q711 194 621 97T379 0H50V87L140 112V312H57ZM294 587V422H415V312H294V117H381Q459 117 501 172T544 357Q544 479 505 533T389
587H294Z" />
<glyph unicode="&#xd1;" glyph-name="Ntilde" horiz-adv-x="785" d="M235 772L187 811Q189 815 192 822T207 849T232 882T267 909T312 921Q348 921 402 898T486 875Q503 875 520 885T546 906L555 917L610 875Q608 871 604 864T587 839T559 807T521 782T475 771Q439
771 388 790T307 810Q288 810 270 801T244 782L235 772ZM325 87V0H35V87L110 112V587L35 617V700L275 705L545 243V587L472 617V700L757 705V617L682 587V0H515L247 453V112L325 87Z" />
<glyph unicode="&#xd2;" glyph-name="Ograve" horiz-adv-x="755" d="M385 717Q535 717 617 624T700 362Q700 193 608 90T365 -13T135 79T55 347Q55 519 143 618T385 717ZM380 592Q302 592 262 537T222 352Q222 229 258 171T370 112Q449 112 490 169T532 357Q532
479 494 535T380 592ZM436 735L209 847L267 956L483 815L436 735Z" />
<glyph unicode="&#xd3;" glyph-name="Oacute" horiz-adv-x="755" d="M385 717Q535 717 617 624T700 362Q700 193 608 90T365 -13T135 79T55 347Q55 519 143 618T385 717ZM380 592Q302 592 262 537T222 352Q222 229 258 171T370 112Q449 112 490 169T532 357Q532
479 494 535T380 592ZM531 848L304 735L257 815L473 956L531 848Z" />
<glyph unicode="&#xd4;" glyph-name="Ocircumflex" horiz-adv-x="755" d="M385 717Q535 717 617 624T700 362Q700 193 608 90T365 -13T135 79T55 347Q55 519 143 618T385 717ZM380 592Q302 592 262 537T222 352Q222 229 258 171T370 112Q449 112 490 169T532 357Q532
479 494 535T380 592ZM385 840L228 742L180 808L333 939L422 947L584 808L536 742L385 840Z" />
<glyph unicode="&#xd5;" glyph-name="Otilde" horiz-adv-x="755" d="M215 777L167 816Q169 820 172 827T187 854T212 887T247 914T292 926Q328 926 382 903T466 880Q483 880 500 890T526 912L535 922L590 880Q588 876 584 869T567 844T539 812T501 787T455 776Q419
776 368 795T287 815Q268 815 250 806T224 786L215 777ZM385 717Q535 717 617 624T700 362Q700 193 608 90T365 -13T135 79T55 347Q55 519 143 618T385 717ZM380 592Q302 592 262 537T222 352Q222 229 258 171T370 112Q449 112 490 169T532 357Q532 479 494 535T380
592Z" />
<glyph unicode="&#xd6;" glyph-name="Odieresis" horiz-adv-x="755" d="M385 717Q535 717 617 624T700 362Q700 193 608 90T365 -13T135 79T55 347Q55 519 143 618T385 717ZM380 592Q302 592 262 537T222 352Q222 229 258 171T370 112Q449 112 490 169T532 357Q532
479 494 535T380 592ZM194 847Q194 882 215 903T268 925Q303 925 321 905T340 847Q340 811 319 790T266 769Q194 769 194 847ZM412 847Q412 882 434 903T486 925Q558 925 558 847Q558 811 537 790T484 769Q412 769 412 847Z" />
<glyph unicode="&#xd7;" glyph-name="multiply" horiz-adv-x="613" d="M53 439L137 524L306 354L476 524L560 439L391 270L560 101L476 16L306 186L137 16L53 101L222 270L53 439Z" />
<glyph unicode="&#xd8;" glyph-name="Oslash" horiz-adv-x="770" d="M163 -110L74 -59L152 69Q62 161 62 347Q62 519 151 618T392 717Q470 717 531 690L593 793L682 742L615 633Q707 539 707 362Q707 194 615 91T372 -12Q296 -12 237 12L163 -110ZM387 592Q310
592 270 538T230 363Q230 277 251 231Q278 276 460 575Q428 592 387 592ZM540 357Q540 427 518 473L308 129Q337 112 377 112Q540 112 540 357Z" />
<glyph unicode="&#xd9;" glyph-name="Ugrave" horiz-adv-x="782" d="M262 587V270Q262 183 291 147T392 110Q468 110 494 150T520 285V587L442 617V700L750 705V617L675 587V285Q675 135 609 62T387 -12Q239 -12 173 56T107 270V587L32 617V700L340 705V617L262
587ZM446 735L219 847L277 956L493 815L446 735Z" />
<glyph unicode="&#xda;" glyph-name="Uacute" horiz-adv-x="782" d="M262 587V270Q262 183 291 147T392 110Q468 110 494 150T520 285V587L442 617V700L750 705V617L675 587V285Q675 135 609 62T387 -12Q239 -12 173 56T107 270V587L32 617V700L340 705V617L262
587ZM586 848L359 735L312 815L528 956L586 848Z" />
<glyph unicode="&#xdb;" glyph-name="Ucircumflex" horiz-adv-x="782" d="M262 587V270Q262 183 291 147T392 110Q468 110 494 150T520 285V587L442 617V700L750 705V617L675 587V285Q675 135 609 62T387 -12Q239 -12 173 56T107 270V587L32 617V700L340 705V617L262
587ZM391 840L234 742L186 808L339 939L428 947L590 808L542 742L391 840Z" />
<glyph unicode="&#xdc;" glyph-name="Udieresis" horiz-adv-x="782" d="M262 587V270Q262 183 291 147T392 110Q468 110 494 150T520 285V587L442 617V700L750 705V617L675 587V285Q675 135 609 62T387 -12Q239 -12 173 56T107 270V587L32 617V700L340 705V617L262
587ZM209 847Q209 882 230 903T283 925Q318 925 336 905T355 847Q355 811 334 790T281 769Q209 769 209 847ZM427 847Q427 882 449 903T501 925Q573 925 573 847Q573 811 552 790T499 769Q427 769 427 847Z" />
<glyph unicode="&#xdd;" glyph-name="Yacute" horiz-adv-x="667" d="M485 87V0H180V87L255 112V244L72 590L7 617V700L290 705V617L239 596L339 379L445 595L390 617V700L660 705V617L591 590L410 245V112L485 87ZM526 848L299 735L252 815L468 956L526 848Z" />
<glyph unicode="&#xde;" glyph-name="Thorn" horiz-adv-x="644" d="M365 87V0H30V87L120 112V587L30 617V700L365 705V617L275 587V555H374Q488 555 551 507T614 370Q614 262 539 211T329 160H275V112L365 87ZM356 445H275V267H339Q397 267 429 290T461 360Q461
401 433 423T356 445Z" />
<glyph unicode="&#xdf;" glyph-name="germandbls" horiz-adv-x="787" d="M152 522V570Q152 668 218 727T395 787Q515 787 581 742T647 618Q647 578 630 546T591 496T552 455T534 410Q534 385 558 367T616 334T683 303T741 253T765 172Q765 90 704 40T546 -10Q510
-10 468 -5T400 6L375 12V173H465L475 106Q502 95 541 95Q613 95 613 149Q613 173 589 190T532 222T464 254T406 307T382 391Q382 430 400 460T441 507T481 546T500 597Q500 635 469 656T397 677Q351 677 326 651T300 577V0H72V80L152 105V420H52V507L152 522Z"
/>
<glyph unicode="&#xe0;" glyph-name="agrave" horiz-adv-x="592" d="M570 7L372 0L354 65Q345 57 330 45T273 11T192 -10Q119 -10 78 31T37 147Q37 312 277 312H347V367Q347 442 270 442Q247 442 225 438T192 430L182 427L167 362H77L70 510Q191 550 287 550Q401
550 448 506T495 352V105L570 87V7ZM181 162Q181 102 240 102Q264 102 290 116T332 146L347 160V227H290Q232 227 207 212T181 162ZM353 598L111 745L179 849L402 671L353 598Z" />
<glyph unicode="&#xe1;" glyph-name="aacute" horiz-adv-x="592" d="M570 7L372 0L354 65Q345 57 330 45T273 11T192 -10Q119 -10 78 31T37 147Q37 312 277 312H347V367Q347 442 270 442Q247 442 225 438T192 430L182 427L167 362H77L70 510Q191 550 287 550Q401
550 448 506T495 352V105L570 87V7ZM181 162Q181 102 240 102Q264 102 290 116T332 146L347 160V227H290Q232 227 207 212T181 162ZM437 745L195 598L146 671L369 849L437 745Z" />
<glyph unicode="&#xe2;" glyph-name="acircumflex" horiz-adv-x="592" d="M570 7L372 0L354 65Q345 57 330 45T273 11T192 -10Q119 -10 78 31T37 147Q37 312 277 312H347V367Q347 442 270 442Q247 442 225 438T192 430L182 427L167 362H77L70 510Q191 550 287
550Q401 550 448 506T495 352V105L570 87V7ZM181 162Q181 102 240 102Q264 102 290 116T332 146L347 160V227H290Q232 227 207 212T181 162ZM287 724L119 604L71 670L235 823L324 831L499 670L451 604L287 724Z" />
<glyph unicode="&#xe3;" glyph-name="atilde" horiz-adv-x="592" d="M570 7L372 0L354 65Q345 57 330 45T273 11T192 -10Q119 -10 78 31T37 147Q37 312 277 312H347V367Q347 442 270 442Q247 442 225 438T192 430L182 427L167 362H77L70 510Q191 550 287 550Q401
550 448 506T495 352V105L570 87V7ZM181 162Q181 102 240 102Q264 102 290 116T332 146L347 160V227H290Q232 227 207 212T181 162ZM116 630L69 676Q71 680 74 687T89 714T114 747T149 774T194 786Q230 786 280 763T360 740Q377 740 394 750T420 772L429 782L482
736Q480 732 477 725T462 698T437 665T402 639T357 627Q321 627 270 649T189 671Q170 671 152 661T125 640L116 630Z" />
<glyph unicode="&#xe4;" glyph-name="adieresis" horiz-adv-x="592" d="M570 7L372 0L354 65Q345 57 330 45T273 11T192 -10Q119 -10 78 31T37 147Q37 312 277 312H347V367Q347 442 270 442Q247 442 225 438T192 430L182 427L167 362H77L70 510Q191 550 287 550Q401
550 448 506T495 352V105L570 87V7ZM181 162Q181 102 240 102Q264 102 290 116T332 146L347 160V227H290Q232 227 207 212T181 162ZM104 954Q104 989 125 1010T178 1032Q213 1032 231 1012T250 954Q250 918 229 897T176 876Q104 876 104 954ZM322 954Q322 989 344
1010T396 1032Q468 1032 468 954Q468 918 447 897T394 876Q322 876 322 954Z" />
<glyph unicode="&#xe5;" glyph-name="aring" horiz-adv-x="592" d="M570 7L372 0L354 65Q345 57 330 45T273 11T192 -10Q119 -10 78 31T37 147Q37 312 277 312H347V367Q347 442 270 442Q247 442 225 438T192 430L182 427L167 362H77L70 510Q191 550 287 550Q401
550 448 506T495 352V105L570 87V7ZM181 162Q181 102 240 102Q264 102 290 116T332 146L347 160V227H290Q232 227 207 212T181 162ZM162 704Q162 764 202 800T296 837T389 803T429 710T389 614T296 577Q242 577 202 611T162 704ZM247 707Q247 650 296 650Q317 650
330 665T344 708Q344 765 296 765Q274 765 261 750T247 707Z" />
<glyph unicode="&#xe6;" glyph-name="ae" horiz-adv-x="863" d="M827 238L496 235Q500 174 532 141T617 107Q654 107 695 118T760 142L783 154L827 74Q815 65 794 51T713 14T597 -10Q451 -10 389 90Q304 -10 192 -10Q121 -10 79 32T37 147Q37 312 277 312H347V367Q347
442 270 442Q248 442 226 438T193 430L182 427L167 362H77L70 510Q70 512 103 521T189 539T285 549Q397 549 441 491Q508 550 607 550Q715 550 774 488T833 316L827 238ZM180 162Q180 134 196 118T240 102Q263 102 290 117T332 147L347 162V227H290Q232 227 206
212T180 162ZM597 433Q555 433 529 405T496 325H679Q679 433 597 433Z" />
<glyph unicode="&#xe7;" glyph-name="ccedilla" horiz-adv-x="515" d="M455 160L505 75Q426 7 334 -6V-40Q373 -48 396 -71T420 -130Q420 -173 384 -201T295 -229Q265 -229 234 -221T187 -205L171 -197L202 -142Q244 -163 284 -163Q306 -163 318 -153T331 -126Q331
-105 309 -94T248 -82V-7Q144 4 87 74T30 262Q30 396 102 473T305 550Q343 550 387 542T456 524L480 515L475 352H385L371 424Q342 432 302 432Q246 432 216 395T185 282Q185 197 216 152T310 107Q330 107 348 110T383 121T409 133T435 148T455 160Z" />
<glyph unicode="&#xe8;" glyph-name="egrave" horiz-adv-x="557" d="M524 240L192 237Q196 175 228 141T312 107Q349 107 391 118T456 142L480 154L523 74Q512 65 492 51T412 14T295 -10Q168 -10 102 60T35 260Q35 393 106 471T302 550Q412 550 471 487T530 315L524
240ZM292 433Q251 433 226 405T194 330H374Q374 433 292 433ZM368 598L126 745L194 849L417 671L368 598Z" />
<glyph unicode="&#xe9;" glyph-name="eacute" horiz-adv-x="557" d="M524 240L192 237Q196 175 228 141T312 107Q349 107 391 118T456 142L480 154L523 74Q512 65 492 51T412 14T295 -10Q168 -10 102 60T35 260Q35 393 106 471T302 550Q412 550 471 487T530 315L524
240ZM292 433Q251 433 226 405T194 330H374Q374 433 292 433ZM459 745L217 598L168 671L391 849L459 745Z" />
<glyph unicode="&#xea;" glyph-name="ecircumflex" horiz-adv-x="557" d="M524 240L192 237Q196 175 228 141T312 107Q349 107 391 118T456 142L480 154L523 74Q512 65 492 51T412 14T295 -10Q168 -10 102 60T35 260Q35 393 106 471T302 550Q412 550 471 487T530
315L524 240ZM292 433Q251 433 226 405T194 330H374Q374 433 292 433ZM290 724L122 604L74 670L238 823L327 831L502 670L454 604L290 724Z" />
<glyph unicode="&#xeb;" glyph-name="edieresis" horiz-adv-x="557" d="M524 240L192 237Q196 175 228 141T312 107Q349 107 391 118T456 142L480 154L523 74Q512 65 492 51T412 14T295 -10Q168 -10 102 60T35 260Q35 393 106 471T302 550Q412 550 471 487T530
315L524 240ZM292 433Q251 433 226 405T194 330H374Q374 433 292 433ZM104 698Q104 733 125 754T178 776Q213 776 231 756T250 698Q250 662 229 641T176 620Q104 620 104 698ZM322 698Q322 733 344 754T396 776Q468 776 468 698Q468 662 447 641T394 620Q322 620
322 698Z" />
<glyph unicode="&#xec;" glyph-name="igrave" horiz-adv-x="369" d="M46 532L273 540V105L343 80V0H46V80L126 105V432L46 452V532ZM267 598L25 745L93 849L316 671L267 598Z" />
<glyph unicode="&#xed;" glyph-name="iacute" horiz-adv-x="358" d="M35 532L262 540V105L332 80V0H35V80L115 105V432L35 452V532ZM345 745L103 598L54 671L277 849L345 745Z" />
<glyph unicode="&#xee;" glyph-name="icircumflex" horiz-adv-x="358" d="M180 724L21 604L-28 670L128 823L217 831L383 670L334 604L180 724ZM35 532L262 540V105L332 80V0H35V80L115 105V432L35 452V532Z" />
<glyph unicode="&#xef;" glyph-name="idieresis" horiz-adv-x="358" d="M-1 698Q-1 733 20 754T73 776Q108 776 126 756T145 698Q145 662 124 641T71 620Q-1 620 -1 698ZM207 698Q207 733 229 754T281 776Q353 776 353 698Q353 662 332 641T279 620Q207 620 207
698ZM35 532L262 540V105L332 80V0H35V80L115 105V432L35 452V532Z" />
<glyph unicode="&#xf0;" glyph-name="eth" horiz-adv-x="595" d="M115 702L161 789Q239 770 308 728L413 789L471 710L390 664Q535 521 535 272Q535 143 465 66T277 -12Q162 -12 97 52T32 240Q32 363 102 434T287 505Q326 505 365 483Q338 555 287 603L170 536L112
615L200 665Q159 687 115 702ZM287 390Q187 390 187 245Q187 102 282 102Q335 102 357 139T380 250Q380 320 360 355T287 390Z" />
<glyph unicode="&#xf1;" glyph-name="ntilde" horiz-adv-x="677" d="M30 532L245 540L251 471Q279 497 328 522T435 548Q507 548 546 501T585 370V107L657 80V0H385V80L437 107V347Q437 383 420 405T370 427Q342 427 315 413T275 384L262 370V107L315 80V0H30V80L115
107V432L30 452V532ZM180 631L133 677Q135 681 138 688T152 715T177 748T212 774T258 786Q294 786 343 764T422 741Q439 741 456 751T484 772L493 783L546 737Q544 733 541 726T526 699T501 666T465 639T420 627Q384 627 333 649T253 672Q234 672 216 662T188 642L180
631Z" />
<glyph unicode="&#xf2;" glyph-name="ograve" horiz-adv-x="592" d="M305 550Q426 550 491 480T557 280Q557 146 485 68T290 -10Q35 -10 35 265Q35 399 108 474T305 550ZM300 435Q243 435 217 398T190 270Q190 184 215 145T295 105T376 144T402 275Q402 356 378
395T300 435ZM383 598L141 745L209 849L432 671L383 598Z" />
<glyph unicode="&#xf3;" glyph-name="oacute" horiz-adv-x="592" d="M305 550Q426 550 491 480T557 280Q557 146 485 68T290 -10Q35 -10 35 265Q35 399 108 474T305 550ZM300 435Q243 435 217 398T190 270Q190 184 215 145T295 105T376 144T402 275Q402 356 378
395T300 435ZM454 745L212 598L163 671L386 849L454 745Z" />
<glyph unicode="&#xf4;" glyph-name="ocircumflex" horiz-adv-x="592" d="M305 550Q426 550 491 480T557 280Q557 146 485 68T290 -10Q35 -10 35 265Q35 399 108 474T305 550ZM300 435Q243 435 217 398T190 270Q190 184 215 145T295 105T376 144T402 275Q402 356
378 395T300 435ZM301 724L133 604L85 670L249 823L338 831L513 670L465 604L301 724Z" />
<glyph unicode="&#xf5;" glyph-name="otilde" horiz-adv-x="592" d="M305 550Q426 550 491 480T557 280Q557 146 485 68T290 -10Q35 -10 35 265Q35 399 108 474T305 550ZM300 435Q243 435 217 398T190 270Q190 184 215 145T295 105T376 144T402 275Q402 356 378
395T300 435ZM136 630L89 676Q91 680 94 687T109 714T134 747T169 774T214 786Q250 786 300 763T380 740Q397 740 414 750T441 772L449 782L502 736Q500 732 497 725T482 698T457 665T422 639T377 627Q341 627 290 649T209 671Q190 671 172 661T145 640L136 630Z"
/>
<glyph unicode="&#xf6;" glyph-name="odieresis" horiz-adv-x="592" d="M305 550Q426 550 491 480T557 280Q557 146 485 68T290 -10Q35 -10 35 265Q35 399 108 474T305 550ZM300 435Q243 435 217 398T190 270Q190 184 215 145T295 105T376 144T402 275Q402 356
378 395T300 435ZM114 954Q114 989 135 1010T188 1032Q223 1032 241 1012T260 954Q260 918 239 897T186 876Q114 876 114 954ZM332 954Q332 989 354 1010T406 1032Q478 1032 478 954Q478 918 457 897T404 876Q332 876 332 954Z" />
<glyph unicode="&#xf7;" glyph-name="divide" horiz-adv-x="630" d="M228 51Q228 95 253 119T317 143Q402 143 402 51Q402 7 378 -17T314 -42Q228 -42 228 51ZM228 481Q228 525 253 549T317 573Q402 573 402 481Q402 437 378 413T314 388Q228 388 228 481ZM52
208V323H577V208H52Z" />
<glyph unicode="&#xf8;" glyph-name="oslash" horiz-adv-x="602" d="M119 -117L44 -75L116 46Q40 113 40 265Q40 399 113 474T310 550Q361 550 409 534L474 643L549 601L484 492Q562 422 562 280Q562 146 490 68T295 -10Q244 -10 192 4L119 -117ZM407 275Q407
319 396 345L257 113Q273 105 300 105Q356 105 381 145T407 275ZM305 435Q247 435 221 397T195 269Q195 227 206 196L344 427Q326 435 305 435Z" />
<glyph unicode="&#xf9;" glyph-name="ugrave" horiz-adv-x="655" d="M89 169V434L16 452V532L237 540V197Q237 156 250 137T293 117Q321 117 350 130T396 158L411 172V434L337 452V532L558 540V105L634 85V7L430 0L420 70Q417 67 411 62T385 42T346 18T298 -1T243
-10Q168 -10 129 37T89 169ZM394 598L152 745L220 849L443 671L394 598Z" />
<glyph unicode="&#xfa;" glyph-name="uacute" horiz-adv-x="655" d="M89 169V434L16 452V532L237 540V197Q237 156 250 137T293 117Q321 117 350 130T396 158L411 172V434L337 452V532L558 540V105L634 85V7L430 0L420 70Q417 67 411 62T385 42T346 18T298 -1T243
-10Q168 -10 129 37T89 169ZM476 745L234 598L185 671L408 849L476 745Z" />
<glyph unicode="&#xfb;" glyph-name="ucircumflex" horiz-adv-x="655" d="M89 169V434L16 452V532L237 540V197Q237 156 250 137T293 117Q321 117 350 130T396 158L411 172V434L337 452V532L558 540V105L634 85V7L430 0L420 70Q417 67 411 62T385 42T346 18T298
-1T243 -10Q168 -10 129 37T89 169ZM320 724L152 604L104 670L268 823L357 831L532 670L484 604L320 724Z" />
<glyph unicode="&#xfc;" glyph-name="udieresis" horiz-adv-x="655" d="M89 169V434L16 452V532L237 540V197Q237 156 250 137T293 117Q321 117 350 130T396 158L411 172V434L337 452V532L558 540V105L634 85V7L430 0L420 70Q417 67 411 62T385 42T346 18T298
-1T243 -10Q168 -10 129 37T89 169ZM132 698Q132 733 153 754T206 776Q241 776 259 756T278 698Q278 662 257 641T204 620Q132 620 132 698ZM350 698Q350 733 372 754T424 776Q496 776 496 698Q496 662 475 641T422 620Q350 620 350 698Z" />
<glyph unicode="&#xfd;" glyph-name="yacute" horiz-adv-x="611" d="M241 -1L63 439L10 455V535L277 540V455L221 445L310 165L395 442L337 455V535L606 540V455L544 442L397 32Q375 -27 356 -67T304 -151T227 -217T125 -240L28 -232L42 -125H107Q135 -125 158
-113T198 -77T223 -38T241 -1ZM521 745L279 598L230 671L453 849L521 745Z" />
<glyph unicode="&#xfe;" glyph-name="thorn" horiz-adv-x="615" d="M25 767L255 775V492Q261 498 272 508T321 534T397 550Q495 550 547 479T600 285Q600 144 529 67T315 -10Q303 -10 288 -8T264 -4L255 -2V-132L360 -155V-235H27V-155L105 -132V667L25 687V767ZM255
385V118Q280 105 331 105Q445 105 445 275Q445 432 347 432Q320 432 297 420T264 396L255 385Z" />
<glyph unicode="&#xff;" glyph-name="ydieresis" horiz-adv-x="611" d="M241 -1L63 439L10 455V535L277 540V455L221 445L310 165L395 442L337 455V535L606 540V455L544 442L397 32Q375 -27 356 -67T304 -151T227 -217T125 -240L28 -232L42 -125H107Q135 -125
158 -113T198 -77T223 -38T241 -1ZM123 712Q123 634 195 634Q226 634 247 655T269 712Q269 749 251 769T197 790Q166 790 145 769T123 712ZM341 712Q341 634 413 634Q444 634 465 655T487 712Q487 790 415 790Q385 790 363 769T341 712ZM114 698Q114 733 135 754T188
776Q223 776 241 756T260 698Q260 662 239 641T186 620Q114 620 114 698ZM332 698Q332 733 354 754T406 776Q478 776 478 698Q478 662 457 641T404 620Q332 620 332 698Z" />
<glyph unicode="&#x2013;" glyph-name="endash" horiz-adv-x="500" d="M0 267V385H500V267H0Z" />
<glyph unicode="&#x2014;" glyph-name="emdash" horiz-adv-x="970" d="M0 267V385H970V267H0Z" />
<glyph unicode="&#x2018;" glyph-name="quoteleft" horiz-adv-x="311" d="M232 523Q232 483 208 459T146 434Q108 434 85 458T62 527Q62 639 200 787L263 736Q203 656 203 615Q203 604 217 577T232 523Z" />
<glyph unicode="&#x2019;" glyph-name="quoteright" horiz-adv-x="311" d="M47 486Q107 566 107 606Q107 618 93 645T78 698Q78 738 102 762T165 787T225 763T248 695Q248 583 111 434L47 486Z" />
<glyph unicode="&#x201a;" glyph-name="quotesinglbase" horiz-adv-x="311" d="M47 -158Q107 -78 107 -38Q107 -26 93 1T78 54Q78 94 102 118T165 143T225 119T248 51Q248 -61 111 -210L47 -158Z" />
<glyph unicode="&#x201c;" glyph-name="quotedblleft" horiz-adv-x="543" d="M465 523Q465 483 441 459T378 434T318 458T295 527Q295 638 432 787L496 736Q436 656 436 615Q436 604 450 577T465 523ZM232 523Q232 483 208 459T146 434Q108 434 85 458T62 527Q62
639 200 787L263 736Q203 656 203 615Q203 604 217 577T232 523Z" />
<glyph unicode="&#x201d;" glyph-name="quotedblright" horiz-adv-x="543" d="M47 486Q107 566 107 606Q107 618 93 645T78 698Q78 738 102 762T165 787T225 763T248 695Q248 583 111 434L47 486ZM280 486Q340 566 340 606Q340 618 326 645T311 698Q311 738 335
762T397 787Q435 787 458 763T481 695Q481 582 343 434L280 486Z" />
<glyph unicode="&#x201e;" glyph-name="quotedblbase" horiz-adv-x="543" d="M47 -158Q107 -78 107 -38Q107 -26 93 1T78 54Q78 94 102 118T165 143T225 119T248 51Q248 -61 111 -210L47 -158ZM280 -158Q340 -78 340 -38Q340 -26 326 1T311 54Q311 94 335 118T397
143Q435 143 458 119T481 51Q481 -62 343 -210L280 -158Z" />
<glyph unicode="&#x2022;" glyph-name="bullet" horiz-adv-x="543" d="M80 237T80 315T135 448T269 504T402 449T458 315T403 182T269 126T136 181Z" />
<glyph unicode="&#x2039;" glyph-name="guilsinglleft" horiz-adv-x="339" d="M176 265L289 105L206 49L50 226V303L206 480L289 425L176 265Z" />
<glyph unicode="&#x203a;" glyph-name="guilsinglright" horiz-adv-x="339" d="M55 105L168 265L55 425L138 480L294 303V226L138 49L55 105Z" />
</font>
</defs>
</svg>
